Tags
Language
Tags

Two Turtle Doves (2019)

Posted By: Tavaz
Two Turtle Doves (2019)

Two Turtle Doves (2019)
MKV | 1280x720 | English | H264 @ 3958 kbps | AC-3 @ 384 kbps | 1 h 23 min | 2.53 GiB
MKV | 1920x1080 | English | H264 @ 7960 kbps | AC-3 @ 384 kbps | 1 h 23 min | 4.87 GiB
Subtitles: English
Genre: Drama, Romance, Family, TV Movie

Dr. Sharon Hayes searches for a beloved family heirloom in a small Christmas town. When she unexpectedly discovers an adorable little girl and her disheartened father, she realizes that Christmas miracles really do happen.

4e332583b7694687bf137464ee6e571d.mkv (2.5 GB)



General
Unique ID : 55599078651160673972576998859521979201 (0x29D3FE383A330CCCB22B4E51C3ECF341)
Complete name : ./4e332583b7694687bf137464ee6e571d.mkv
Format : Matroska
Format version : Version 4 / Version 2
File size : 2.53 GiB
Duration : 1 h 23 min
Overall bit rate : 4 345 kb/s
Encoded date : UTC 2020-01-04 13:25:52
Writing application : mkvmerge v30.1.0 ('Forever And More') 64-bit
Writing library : libebml v1.3.6 + libmatroska v1.4.9

Video
ID : 3
Format : AVC
Format/Info : Advanced Video Codec
Format profile : [email protected]
Format settings : CABAC / 5 Ref Frames
Format settings, CABAC : Yes
Format settings, RefFrames : 5 frames
Codec ID : V_MPEG4/ISO/AVC
Duration : 1 h 23 min
Bit rate : 3 959 kb/s
Width : 1 280 pixels
Height : 720 pixels
Display aspect ratio : 16:9
Frame rate mode : Constant
Frame rate : 23.976 (24000/1001) FPS
Color space : YUV
Chroma subsampling : 4:2:0
Bit depth : 8 bits
Scan type : Progressive
Bits/(Pixel*Frame) : 0.179
Stream size : 2.31 GiB (91%)
Writing library : x264 core 158 r2984 3759fcb
Encoding settings : cabac=1 / ref=5 / deblock=1:0:0 / analyse=0x3:0x113 / me=umh / subme=8 / psy=1 / psy_rd=1.00:0.15 / mixed_ref=1 / me_range=16 / chroma_me=1 / trellis=2 / 8x8dct=1 / cqm=0 / deadzone=21,11 / fast_pskip=1 / chroma_qp_offset=-3 / threads=22 / lookahead_threads=3 / sliced_threads=0 / nr=0 / decimate=1 / interlaced=0 / bluray_compat=0 / constrained_intra=0 / bframes=3 / b_pyramid=2 / b_adapt=2 / b_bias=0 / direct=3 / weightb=1 / open_gop=0 / weightp=2 / keyint=240 / keyint_min=23 / scenecut=40 / intra_refresh=0 / rc_lookahead=50 / rc=crf / mbtree=1 / crf=18.0 / qcomp=0.60 / qpmin=0 / qpmax=69 / qpstep=4 / vbv_maxrate=62500 / vbv_bufsize=78125 / crf_max=0.0 / nal_hrd=none / filler=0 / ip_ratio=1.40 / aq=1:1.00
Language : English
Default : Yes
Forced : No
Color range : Limited
Matrix coefficients : BT.709

Audio
ID : 1
Format : AC-3
Format/Info : Audio Coding 3
Format settings, Endianness : Big
Codec ID : A_AC3
Duration : 1 h 23 min
Bit rate mode : Constant
Bit rate : 384 kb/s
Channel(s) : 6 channels
Channel positions : Front: L C R, Side: L R, LFE
Sampling rate : 48.0 kHz
Frame rate : 31.250 FPS (1536 SPF)
Bit depth : 16 bits
Compression mode : Lossy
Delay relative to video : 3 ms
Stream size : 229 MiB (9%)
Service kind : Complete Main
Default : Yes
Forced : No

Text
ID : 2
Format : UTF-8
Codec ID : S_TEXT/UTF8
Codec ID/Info : UTF-8 Plain Text
Duration : 1 h 22 min
Bit rate : 108 b/s
Count of elements : 1761
Stream size : 65.5 KiB (0%)
Language : English
Default : No
Forced : No





Two Turtle Doves (2019)


Two Turtle Doves (2019)


Two Turtle Doves (2019)


Two Turtle Doves (2019)


Two Turtle Doves (2019)